Chris Rock Tamborine 2018 Movies HDRip x264 5 1 MSubs with Sample ☻rDX☻

Chris Rock Tamborine 2018 Movies HDRip x264 5 1 MSubs with Sample ☻rDX☻ Torrent
Size: 706.1 MB
Language: English
Uploader: nehalpuja

Download Chris Rock Tamborine 2018 Movies HDRip x264 5 1 MSubs with Sample ☻rDX☻ Torrent torrent video for PC, tablet, MAC, IPhone or Android device.
Chris Rock Tamborine 2018 Movies HDRip x264 5 1 MSubs with Sample ☻rDX☻ Torrent For Torrent download Link. Scroll down!.


MOVIE TRAILER BELLOW.


Chris Rock Tamborine 2018 Movies HDRip x264 5.1 MSubs with Sample ☻rDX☻
===============================================================================================

SCREEN SHOTS:



or

http://postimage.co.nr/2018/2/calls/1.html

File size : 699 MiB
Duration : 1 h 4 min
Overall bit rate mode : Variable
Overall bit rate : 1 505 kb/s
Movie name : Chris Rock Tamborine 2018 Movies HDRip x264 5.1 MSubs ☻rDX☻

Video
ID : 2
Format : AVC
Format/Info : Advanced Video Codec
Format profile : [email protected]
Format settings, CABAC : Yes
Format settings, ReFrames : 3 frames
Codec ID : V_MPEG4/ISO/AVC
Duration : 1 h 4 min
Bit rate mode : Variable
Bit rate : 1 091 kb/s
Nominal bit rate : 830 kb/s
Maximum bit rate : 1 245 kb/s
Width : 720 pixels
Height : 480 pixels
Display aspect ratio : 16:9
Frame rate mode : Constant
Frame rate : 23.976 (24000/1001) FPS
Color space : YUV
Chroma subsampling : 4:2:0
Bit depth : 8 bits
Scan type : Progressive
Bits/(Pixel*Frame) : 0.132
Stream size : 507 MiB (72%)
Title : ☻rDX☻
Writing library : x264

Audio
ID : 1
Format : AC-3
Format/Info : Audio Coding 3
Mode extension : CM (complete main)
Format settings, Endianness : Big
Codec ID : A_AC3
Duration : 1 h 4 min
Bit rate mode : Constant
Bit rate : 384 kb/s
Channel(s) : 6 channels
Channel positions : Front: L C R, Side: L R, LFE
Sampling rate : 48.0 kHz
Frame rate : 31.250 FPS (1536 spf)
Bit depth : 16 bits
Compression mode : Lossy
Stream size : 178 MiB (26%)
Title : ☻rDX☻
Language : English
Default : Yes
Forced : No

Text #1
ID : 3
Format : UTF-8
Codec ID : S_TEXT/UTF8
Codec ID/Info : UTF-8 Plain Text
Title : ☻rDX☻
Language : English
Default : No
Forced : No

Text #2
ID : 4
Format : UTF-8
Codec ID : S_TEXT/UTF8
Codec ID/Info : UTF-8 Plain Text
Title : ☻rDX☻
Language : Dutch
Default : No
Forced : No

Text #3
ID : 5
Format : UTF-8
Codec ID : S_TEXT/UTF8
Codec ID/Info : UTF-8 Plain Text
Title : ☻rDX☻
Language : Spanish
Default : No
Forced : No

Text #4
ID : 6
Format : UTF-8
Codec ID : S_TEXT/UTF8
Codec ID/Info : UTF-8 Plain Text
Title : ☻rDX☻
Language : French
Default : No
Forced : No

Text #5
ID : 7
Format : UTF-8
Codec ID : S_TEXT/UTF8
Codec ID/Info : UTF-8 Plain Text
Title : ☻rDX☻
Language : German
Default : No
Forced : No



IMDB : na

Chris Rock Tamborine 2018 Movies HDRip x264 5 1 MSubs with Sample ☻rDX☻ Torrent




Hey Friend! Like us!