Legends of Tomorrow S03E10 Daddy Darhkest 1080p DD5 1 - 2 0 x264 Phun Psyz

Legends of Tomorrow S03E10 Daddy Darhkest 1080p DD5 1 - 2 0 x264 Phun Psyz Torrent
Size: 744.0 MB
Language: English
Uploader: PhunPsyz

Download Legends of Tomorrow S03E10 Daddy Darhkest 1080p DD5 1 - 2 0 x264 Phun Psyz Torrent torrent video for PC, tablet, MAC, IPhone or Android device.
Legends of Tomorrow S03E10 Daddy Darhkest 1080p DD5 1 - 2 0 x264 Phun Psyz Torrent For Torrent download Link. Scroll down!.


MOVIE TRAILER BELLOW.


http://www.imdb.com/title/tt6464552/?ref_=ttep_ep10

John Constantine pays the Legends a visit; they agree to accompany him to a present-day psychiatric hospital and are surprised to discover who Constantine is trying to help; Amaya and Nate once again come face-to-face with Kuasa.

Source: QOQ (Amzn) (4.33 GiB)



Format : MPEG-4
Format profile : Base Media / Version 2
Codec ID : mp42 (isom/iso2/avc1/mp41)
File size : 744 MiB
Duration : 42 min 19 s
Overall bit rate mode : Variable
Overall bit rate : 2 457 kb/s

Video
ID : 1
Format : AVC
Format/Info : Advanced Video Codec
Format profile : [email protected]
Format settings : CABAC / 8 Ref Frames
Format settings, CABAC : Yes
Format settings, RefFrames : 8 frames
Codec ID : avc1
Codec ID/Info : Advanced Video Coding
Duration : 42 min 19 s
Bit rate : 1 970 kb/s
Width : 1 920 pixels
Height : 1 080 pixels
Display aspect ratio : 16:9
Frame rate mode : Variable
Frame rate : 23.976 (24000/1001) FPS
Minimum frame rate : 23.974 FPS
Maximum frame rate : 23.981 FPS
Color space : YUV
Chroma subsampling : 4:2:0
Bit depth : 8 bits
Scan type : Progressive
Bits/(Pixel*Frame) : 0.040
Stream size : 596 MiB (80%)
Writing library : x264 core 148 r2708 86b7198

Audio #1
ID : 2
Format : AC-3
Format/Info : Audio Coding 3
Format settings, Endianness : Big
Codec ID : ac-3
Duration : 42 min 19 s
Bit rate mode : Constant
Bit rate : 320 kb/s
Channel(s) : 6 channels
Channel positions : Front: L C R, Side: L R, LFE
Sampling rate : 48.0 kHz
Frame rate : 31.250 FPS (1536 SPF)
Bit depth : 16 bits
Compression mode : Lossy
Stream size : 96.9 MiB (13%)
Title : Surround / Surround
Language : English

Audio #2
ID : 3
Format : AAC
Format/Info : Advanced Audio Codec
Format profile : LC
Codec ID : mp4a-40-2
Duration : 42 min 19 s
Bit rate mode : Variable
Bit rate : 160 kb/s
Channel(s) : 2 channels
Channel positions : Front: L R
Sampling rate : 48.0 kHz
Frame rate : 46.875 FPS (1024 SPF)
Compression mode : Lossy
Stream size : 48.5 MiB (7%)
Title : Stereo / Stereo
Language : English

Text #1
ID : 4
Format : Timed Text
Muxing mode : sbtl
Codec ID : tx3g
Duration : 42 min 14 s
Bit rate mode : Variable
Bit rate : 88 b/s
Stream size : 27.2 KiB (0%)
Language : English
Default : Yes
Forced : No

Text #2
ID : 5
Format : Timed Text
Muxing mode : sbtl
Codec ID : tx3g
Duration : 42 min 14 s
Bit rate mode : Variable
Bit rate : 104 b/s
Stream size : 32.2 KiB (0%)
Language : English
Default : No
Forced : No

Legends of Tomorrow S03E10 Daddy Darhkest 1080p DD5 1 - 2 0 x264 Phun Psyz Torrent




Hey Friend! Like us!