Len and Company 2015 1080p WEB-DL NF DD5 1 H 264 CRO-DIAMOND

Len and Company 2015 1080p WEB-DL NF DD5 1 H 264 CRO-DIAMOND Torrent
Size: 2.2 GB
Language: English
Uploader: dmd12

Download Len and Company 2015 1080p WEB-DL NF DD5 1 H 264 CRO-DIAMOND Torrent torrent video for PC, tablet, MAC, IPhone or Android device.
Len and Company 2015 1080p WEB-DL NF DD5 1 H 264 CRO-DIAMOND Torrent For Torrent download Link. Scroll down!.


MOVIE TRAILER BELLOW.






Code:

General
Unique ID : 17833379622477557311363734486996298039 (0xD6A957FDFCBAAD2EA0FBA83E3952937)
Complete name : Len.and.Company.2015.1080p.WEB-DL.NF.DD5.1.H.264.CRO-DIAMOND.mkv
Format : Matroska
Format version : Version 4 / Version 2
File size : 2.25 GiB
Duration : 1h 37mn
Overall bit rate : 3 299 Kbps
Movie name : CRO DIAMOND 1080p
Encoded date : UTC 2018-01-30 17:31:28
Writing application : mkvmerge v9.6.0 ('Slave To Your Mind') 64bit
Writing library : libebml v1.3.4 + libmatroska v1.4.5
DURATION : 01:36:43.389000000
NUMBER_OF_FRAMES : 1303
NUMBER_OF_BYTES : 42500
_STATISTICS_WRITING_APP : mkvmerge v9.6.0 ('Slave To Your Mind') 64bit
_STATISTICS_WRITING_DATE_UTC : 2018-01-30 17:31:28
_STATISTICS_TAGS : BPS DURATION NUMBER_OF_FRAMES NUMBER_OF_BYTES

Video
ID : 2
Format : AVC
Format/Info : Advanced Video Codec
Format profile :
[email protected]
Format settings, CABAC : Yes
Format settings, ReFrames : 2 frames
Format settings, GOP : M=1, N=12
Codec ID : V_MPEG4/ISO/AVC
Duration : 1h 37mn
Bit rate : 3 042 Kbps
Width : 1 920 pixels
Height : 1 080 pixels
Display aspect ratio : 16:9
Frame rate mode : Constant
Frame rate : 23.976 fps
Color space : YUV
Chroma subsampling : 4:2:0
Bit depth : 8 bits
Scan type : Progressive
Bits/(Pixel*Frame) : 0.061
Stream size : 2.07 GiB (92%)
Title : CRO DIAMOND 1080p
Default : Yes
Forced : No

Audio
ID : 1
Format : E-AC-3
Format/Info : Audio Coding 3
Format settings, Endianness : Big
Codec ID : A_EAC3
Duration : 1h 37mn
Bit rate mode : Constant
Bit rate : 192 Kbps
Channel(s) : 6 channels
Channel positions : Front: L C R, Side: L R, LFE
Sampling rate : 48.0 KHz
Compression mode : Lossy
Delay relative to video : -42ms
Stream size : 134 MiB (6%)
Language : English
Default : Yes
Forced : No

Text #1
ID : 3
Format : UTF-8
Codec ID : S_TEXT/UTF8
Codec ID/Info : UTF-8 Plain Text
Language : English
Default : Yes
Forced : No

Text #2
ID : 4
Format : UTF-8
Codec ID : S_TEXT/UTF8
Codec ID/Info : UTF-8 Plain Text
Language : Croatian
Default : No
Forced : No

Len and Company 2015 1080p WEB-DL NF DD5 1 H 264 CRO-DIAMOND Torrent




Hey Friend! Like us!