The Force 2017 720p WEB-HD x264 AC3 LLG

The Force 2017 720p WEB-HD x264 AC3 LLG Torrent
Size: 754.9 MB
Language: English
Uploader: Creampie

Download The Force 2017 720p WEB-HD x264 AC3 LLG Torrent torrent video for PC, tablet, MAC, IPhone or Android device.
The Force 2017 720p WEB-HD x264 AC3 LLG Torrent For Torrent download Link. Scroll down!.


MOVIE TRAILER BELLOW.


******************************Thumbnail:**********************



******************************Screenshots:********************

Screenshot 1

Screenshot 2

Screenshot 3

Screenshot 4

Screenshot 5

Screenshot 6

Screenshot 7

Screenshot 8

Screenshot 9

Screenshot 0

**************************************************************

Complete name : The.Force.2017.720p.WEB-HD.x264.AC3.LLG.mp4
Format : MPEG-4
Format profile : Base Media
Codec ID : isom (isom/iso2/avc1/mp41)
File size : 743 MiB
Duration : 1 h 32 min
Overall bit rate : 1 124 kb/s
Writing application : Lavf57.56.101

Video
ID : 1
Format : AVC
Format/Info : Advanced Video Codec
Format profile : [email protected]
Format settings : CABAC / 4 Ref Frames
Format settings, CABAC : Yes
Format settings, RefFrames : 4 frames
Codec ID : avc1
Codec ID/Info : Advanced Video Coding
Duration : 1 h 32 min
Bit rate : 900 kb/s
Width : 1 280 pixels
Height : 720 pixels
Display aspect ratio : 16:9
Frame rate mode : Constant
Frame rate : 23.976 (23976/1000) FPS
Color space : YUV
Chroma subsampling : 4:2:0
Bit depth : 8 bits
Scan type : Progressive
Bits/(Pixel*Frame) : 0.041
Stream size : 570 MiB (77%)

Audio
ID : 2
Format : AC-3
Format/Info : Audio Coding 3
Codec ID : ac-3
Duration : 1 h 32 min
Bit rate mode : Constant
Bit rate : 256 kb/s
Channel(s) : 6 channels
Channel positions : Front: L C R, Side: L R, LFE
Sampling rate : 48.0 kHz
Frame rate : 31.250 FPS (1536 SPF)
Bit depth : 16 bits
Compression mode : Lossy
Stream size : 169 MiB (23%)
Language : English
Service kind : Complete Main
Default : Yes
Alternate group : 1

The Force 2017 720p WEB-HD x264 AC3 LLG Torrent




Hey Friend! Like us!